<?xml version="1.0" standalone="no"?>
<!DOCTYPE svg PUBLIC "-//W3C//DTD SVG 1.1//EN" "http://www.w3.org/Graphics/SVG/1.1/DTD/svg11.dtd" >
<svg xmlns="http://www.w3.org/2000/svg" xmlns:xlink="http://www.w3.org/1999/xlink" version="1.1">
<metadata></metadata>
<defs>
<font id="fb_carbonbold" horiz-adv-x="0" >
<font-face units-per-em="1000" ascent="742" descent="-258" />
<missing-glyph horiz-adv-x="180" />
<glyph unicode=" "  horiz-adv-x="180" />
<glyph unicode="&#x09;" horiz-adv-x="180" />
<glyph unicode="&#xa0;" horiz-adv-x="180" />
<glyph unicode="!" horiz-adv-x="278" d="M183 205q-22 -12 -76 -29q-8 18 -20 114.5t-15 149.5q14 6 40.5 12.5t54.5 10.5t50 5zM195 117q5 -13 6 -46.5t-6 -68.5q-13 -6 -55 -6.5t-60 2.5q-1 99 -4 117q18 6 57.5 6.5t61.5 -4.5z" />
<glyph unicode="&#x22;" horiz-adv-x="340" d="M126 562q25 -13 31 -51q1 -11 1 -21t-1 -19t-4.5 -18.5t-7 -17t-10.5 -17.5t-12.5 -17t-16 -19t-18 -20t-21 -23t-23.5 -25q-8 6 -10 14q23 34 24.5 82.5t-17.5 68.5q11 18 40.5 46t44.5 37zM272 562q25 -13 31 -51q1 -11 1 -21t-0.5 -19t-4.5 -18.5t-7 -17t-10.5 -17.5 t-13 -17t-16 -19t-18 -20t-21 -23t-23.5 -25q-8 6 -10 14q23 34 24.5 82.5t-17.5 68.5q11 18 40.5 46t44.5 37z" />
<glyph unicode="#" horiz-adv-x="624" d="M482 352l100 1q-13 -54 -29 -69h-93l-29 -94h115q-13 -53 -29 -68l-107 -1l-36 -118q-12 -8 -43 -14t-48 -5l41 137l-103 -1l-36 -117q-12 -8 -43 -14t-48 -5l41 136l-95 -1q0 7 3 18.5t7 22t9 19t8 10.5h89l28 93h-108q0 14 10 40t17 29h102l32 107q11 5 46 10t47 4 l-37 -120h101l32 106q11 5 46 10t47 4zM345 190l28 93h-102l-29 -94z" />
<glyph unicode="$" horiz-adv-x="442" d="M381 161q1 -63 -24.5 -104t-82.5 -53l-1 -63q-46 -15 -94 -12l1 73q-27 3 -112 24q-1 18 4 54t11 53q85 -28 152 -27q18 0 26.5 9.5t8.5 24t-11.5 25t-38.5 19.5l-50 18q-47 17 -72.5 44.5t-26.5 81.5q-2 119 107 136l1 68q46 14 94 12l-1 -82q24 -4 93 -20q1 -18 -3 -52 t-9 -54q-14 3 -43.5 10.5t-50.5 11.5t-40 3q-29 0 -28 -26q0 -10 3 -16.5t15.5 -13.5t35.5 -13l39 -13q46 -15 71 -42t26 -76z" />
<glyph unicode="%" horiz-adv-x="662" d="M167 221q-59 0 -91 30t-32 82v38q0 50 31 80.5t92 30.5q41 0 69 -14.5t41 -39t13 -57.5v-36q0 -52 -32 -83t-91 -31zM102 -9l363 471q56 8 94 0l-366 -471q-17 -6 -49 -6t-42 6zM167 303v1q28 0 28 35v28q0 13 -6.5 23t-21.5 10t-21.5 -10t-6.5 -23v-30q2 -33 28 -34z M498 -25q-58 0 -90 30t-33 82v38q0 33 13 57.5t41.5 39t68.5 14.5q61 0 92.5 -30.5t30.5 -80.5v-36q0 -52 -32 -83t-91 -31zM498 57h1q27 0 27 36l1 28q0 13 -7 23t-22 10t-21.5 -10t-6.5 -23v-31q2 -33 28 -33z" />
<glyph unicode="&#x26;" horiz-adv-x="586" d="M492 132q54 -56 66 -81q-6 -14 -26 -38.5t-35 -35.5q-19 27 -61 71q-53 -57 -125 -57l-122 1q-67 0 -96.5 33t-29.5 82v11q0 42 28 77.5t89 69.5q-70 62 -70 122v32q0 44 37.5 78t89.5 34h66q59 0 92.5 -34.5t33.5 -84.5v-19q0 -31 -26.5 -64t-71.5 -58q32 -23 37 -26 q22 -18 50 -43q6 15 18 45.5t18 43.5q48 -10 88 -30q-24 -77 -50 -129zM223 396v-17q0 -27 61 -74l-7 6q46 38 46 65v17q0 18 -10.5 29t-29.5 11h-21q-17 0 -28 -10t-11 -27zM280 91q52 -1 84 27q-37 33 -70 58q-10 8 -31 23.5t-32 23.5q-53 -43 -53 -75v-15q0 -16 14 -29 t46 -13h42z" />
<glyph unicode="'" horiz-adv-x="214" d="M139 567q25 -13 31 -51q2 -11 2 -21t-1 -19t-4.5 -18.5t-7 -17t-10.5 -17.5t-12.5 -17t-16 -19t-18 -20.5t-21 -23t-23.5 -24.5q-8 6 -10 14q22 34 24 82.5t-17 68.5q11 18 40 46t44 37z" />
<glyph unicode="(" horiz-adv-x="411" d="M256 -137q20 2 47 13t43 23v1q-8 7 -17 17.5t-31.5 43.5t-39 67t-31 85.5t-14.5 102.5v50q0 51 14.5 102t31 85t39 67t31.5 43.5t17 18.5q-14 10 -44.5 22t-45.5 15q-53 -38 -108.5 -144t-57.5 -209v-50q2 -103 57.5 -209.5t108.5 -143.5z" />
<glyph unicode=")" horiz-adv-x="411" d="M154 -137q54 37 109 143.5t58 209.5v50q-3 103 -58 209t-109 144q-14 -3 -44.5 -15t-44.5 -22q7 -8 16.5 -18.5t32 -43.5t39 -67t30.5 -85t15 -102v-50q-1 -51 -15 -102.5t-30.5 -85.5t-39 -67t-32 -43.5t-16.5 -17.5v-1q16 -12 43 -23t46 -13z" />
<glyph unicode="*" horiz-adv-x="456" d="M241 417q26 -15 67.5 -48t49.5 -45q-6 -7 -20 -19t-30 -23t-27 -15q-32 69 -50 142h-2q-3 0 -6 1q-7 -30 -25.5 -78.5t-26.5 -59.5q-14 4 -40.5 23t-38.5 33q56 52 120 91q0 1 -1 2q-31 -2 -82 0.5t-64 6.5q0 7 3 19.5t7 26t9 26t10 20.5q65 -36 121 -83q1 0 1 1 q-12 30 -24.5 76.5t-12.5 58.5q15 5 47 5.5t50 -3.5q-14 -73 -41 -140q0 -1 1 -1q22 20 66.5 49.5t57.5 33.5q9 -12 19.5 -42.5t11.5 -49.5q-75 -9 -149 -4q0 -2 -1 -4z" />
<glyph unicode="+" horiz-adv-x="477" d="M397 300q1 -18 -2.5 -52t-6.5 -47h-102v-108q-46 -14 -98 -11l1 119h-123q0 13 3.5 50.5t6.5 48.5h113l1 107q44 16 97 12v-119h110z" />
<glyph unicode="," horiz-adv-x="249" d="M149 130q28 -15 34 -56q2 -12 2 -23.5t-1 -21t-5 -20t-7.5 -19t-11.5 -19.5t-14 -19t-17.5 -21t-20 -22t-23.5 -25t-26 -28q-9 6 -11 15q25 38 27 91.5t-19 75.5q12 20 44 50.5t49 41.5z" />
<glyph unicode="-" horiz-adv-x="387" d="M80 171q0 9 1.5 31.5t4 46t4.5 31.5h219q1 -19 -2.5 -56.5t-6.5 -52.5h-220z" />
<glyph unicode="." horiz-adv-x="313" d="M212 112q5 -12 6 -45.5t-6 -67.5q-13 -5 -53.5 -6t-59.5 2q-1 98 -3 115q17 6 55.5 6.5t60.5 -4.5z" />
<glyph unicode="/" horiz-adv-x="506" d="M344 603q17 9 52 11.5t50 -4.5l-288 -683q-15 -9 -51 -13t-47 2z" />
<glyph unicode="0" horiz-adv-x="401" d="M200 -7q-63 0 -104 25.5t-59 70t-18 107.5v76q-1 203 181 203t181 -203v-73q0 -206 -181 -206zM200 101q32 0 45 20t13 75v79q0 26 -3 43t-9.5 28t-17.5 16t-28 5q-33 0 -45.5 -20.5t-12.5 -71.5l1 -82q0 -54 12.5 -73t44.5 -19z" />
<glyph unicode="1" horiz-adv-x="401" d="M278 109h85q-2 -63 -13 -107l-312 -2q3 47 13 110h103l1 215l-94 -38q-6 14 -14.5 54t-9.5 59q21 9 114.5 37.5t107.5 30.5q8 1 13.5 -4t5.5 -15v-340z" />
<glyph unicode="2" horiz-adv-x="401" d="M343 0h-302l2 83q3 68 124 163q54 43 54 82q0 18 -14.5 28.5t-41.5 10.5q-33 0 -76 -30q-7 8 -22 42.5t-18 49.5q22 19 59 32t79 13q67 0 111.5 -37t44.5 -96q0 -78 -75 -144q-20 -17 -47.5 -37.5t-42.5 -32.5t-16 -17l192 2q-2 -69 -11 -112z" />
<glyph unicode="3" horiz-adv-x="401" d="M299 246v1q64 -33 64 -100q0 -64 -49 -109.5t-140 -45.5q-45 0 -85.5 10t-58.5 25q2 21 11.5 52t17.5 49q56 -27 119 -27q66 0 66 52q0 14 -11.5 24.5t-30.5 10.5l-94 -1q0 13 3 45t7 46h56q54 0 54 53q0 20 -18.5 28.5t-43.5 8.5q-21 0 -46 -8t-33 -14q-8 6 -21.5 42.5 t-15.5 50.5q19 14 56.5 24.5t78.5 10.5q51 0 87.5 -15.5t54.5 -43.5t18 -65q0 -57 -46 -104z" />
<glyph unicode="4" horiz-adv-x="401" d="M219 -9v82l-190 3q-18 57 -14 91q37 54 105 163t89 151q9 -1 23 -7t28.5 -14t28 -17.5t19.5 -17.5q-7 -27 -73 -120t-97 -128h90l3 78q32 14 102 14l5 -92l55 2q-11 -78 -16 -97l-36 -2l2 -70q-32 -11 -124 -19z" />
<glyph unicode="5" horiz-adv-x="401" d="M185 -8q-50 0 -93.5 12.5t-56.5 25.5q13 53 37 100q5 -4 12.5 -8t17.5 -8t21.5 -7.5t25 -5.5t26.5 -2q32 0 52.5 17.5t20.5 42.5t-18 39t-51 14q-12 0 -26.5 -2.5t-22.5 -5t-27.5 -8.5t-23.5 -8l-17 11v269h280q-1 -58 -14 -109l-161 9l-3 -94q42 21 87 21q53 0 87 -33 t34 -93q0 -73 -53.5 -125t-133.5 -52z" />
<glyph unicode="6" horiz-adv-x="400" d="M251 300q59 -1 94.5 -41t35.5 -102q0 -66 -48 -118.5t-126 -51.5q-81 0 -129 59t-48 148q0 48 14.5 91.5t45 83t83 68t122.5 40.5q10 -16 27 -102q-68 -4 -119 -40.5t-59 -90.5q12 21 44 38.5t63 17.5zM208 91q26 -1 42.5 16t16.5 41q0 30 -16 46t-40 17q-21 0 -40 -16 t-19 -41q0 -29 16.5 -46t39.5 -17z" />
<glyph unicode="7" horiz-adv-x="401" d="M377 468q4 -50 -15 -108q-12 -23 -46 -89.5t-69 -136.5l-63 -126q-80 -14 -131 -6q58 114 185 356h-201q-1 26 3 60t11 50h326z" />
<glyph unicode="8" horiz-adv-x="400" d="M304 250q44 -17 62.5 -44t18.5 -70q0 -62 -49.5 -106.5t-128.5 -44.5q-83 0 -135.5 38t-52.5 103q0 35 21 64.5t54 45.5q-55 43 -55 103q0 38 22.5 69t60.5 48.5t84 17.5q68 0 112.5 -33.5t44.5 -87.5q0 -13 -2.5 -25.5t-7.5 -24t-12.5 -21.5t-16.5 -18t-20 -14zM204 380 q-22 0 -36.5 -12t-14.5 -31q0 -45 60 -61l23 -6q9 9 17 26.5t8 35.5q0 23 -16.5 35.5t-40.5 12.5zM208 80q29 0 47 15t18 37q0 12 -3 21t-15 18t-34 15l-47 12q-7 2 -14 5q-28 -26 -28 -58q0 -27 22.5 -46t53.5 -19z" />
<glyph unicode="9" horiz-adv-x="400" d="M149 160q-39 0 -69 21.5t-45.5 56t-15.5 75.5q0 64 47.5 112.5t126.5 47.5q81 -1 129 -55t48 -142q0 -48 -14.5 -93.5t-45 -86.5t-83 -71.5t-122.5 -41.5q-10 16 -28 102q45 2 83.5 19t64.5 46.5t31 65.5q-12 -21 -44 -38.5t-63 -17.5zM192 367q-26 0 -42.5 -16 t-16.5 -40q0 -29 16 -45.5t40 -16.5q13 0 26.5 6.5t23 20t9.5 30.5q0 27 -16.5 44t-39.5 17z" />
<glyph unicode=":" horiz-adv-x="281" d="M209 362q6 -13 6.5 -46t-6.5 -67q-13 -6 -53.5 -6.5t-58.5 2.5q-2 98 -4 115q17 6 55.5 6.5t60.5 -4.5zM209 116q6 -13 6.5 -46t-6.5 -67q-13 -6 -53.5 -6.5t-58.5 2.5q-2 98 -4 115q17 5 55.5 6t60.5 -4z" />
<glyph unicode=";" horiz-adv-x="292" d="M201 362q6 -13 6.5 -46t-6.5 -67q-13 -6 -53.5 -6.5t-58.5 2.5q-2 98 -4 115q17 6 55.5 6.5t60.5 -4.5zM174 124q26 -14 32 -53q2 -12 2 -22.5t-1 -20t-5 -19.5t-7.5 -17.5t-11 -18t-13 -18t-16.5 -20t-19 -21t-22 -24t-25 -26.5q-8 6 -10 15q23 35 25 86t-18 72 q12 19 42.5 48t46.5 39z" />
<glyph unicode="&#x3c;" horiz-adv-x="433" d="M283 435q17 -11 38 -36t30 -44l-135 -106l147 -83q-9 -25 -28 -54.5t-34 -41.5l-231 170z" />
<glyph unicode="=" horiz-adv-x="433" d="M75 251q0 13 3 50.5t6 48.5h273q0 -18 -2.5 -52t-5.5 -47h-274zM65 121q-1 13 2.5 50.5t5.5 48.5h273q1 -18 -2 -52t-5 -47h-274z" />
<glyph unicode="&#x3e;" horiz-adv-x="433" d="M150 435l213 -195l-232 -170q-15 12 -33.5 41.5t-27.5 54.5l146 83l-135 106q9 19 30 44t39 36z" />
<glyph unicode="?" horiz-adv-x="375" d="M148 360q-43 -4 -78 -37q-20 19 -47 83q16 23 57 43.5t89 20.5q58 0 103 -33t45 -94q0 -44 -34 -75t-76 -43q0 -4 1 -18t1 -24q-31 -11 -90 -13q0 66 8 87q25 8 48 25t23 39q0 20 -15 31t-35 8zM222 117q5 -13 6 -46.5t-6 -68.5q-13 -6 -55 -6.5t-60 2.5q-1 99 -4 117 q18 6 57.5 6.5t61.5 -4.5z" />
<glyph unicode="@" horiz-adv-x="786" d="M418 -101q-151 -17 -248.5 69t-97.5 239q0 61 22 117.5t62 100t101 69.5t133 26q52 0 98 -10t81.5 -29t63 -45t45.5 -57.5t27.5 -67.5t9.5 -75q0 -82 -41.5 -135t-110.5 -53q-25 0 -46.5 5.5t-40 18.5t-25 18t-21.5 19q-12 -17 -33.5 -28.5t-49.5 -11.5q-41 0 -61.5 22 t-20.5 60q0 43 25.5 63t64.5 20q49 0 71 -9v24q-5 28 -36 28q-18 0 -47.5 -4t-44.5 -9q-2 13 0 36.5t5 39.5q51 12 98 12q20 0 37 -4t34 -12.5t27 -27.5t10 -45q0 -22 1 -31.5t1 -96.5q37 -14 52 -14q29 0 44 22.5t15 82.5q0 203 -237 203q-107 0 -161 -59t-54 -162 q0 -58 18.5 -103t48.5 -69t66.5 -36.5t72.5 -11.5t68 11q-1 -16 -8.5 -47.5t-17.5 -52.5zM381 137q36 0 46 20q-1 17 -1 37q-23 6 -39 6q-21 0 -28 -7t-7 -27q0 -14 7.5 -21.5t21.5 -7.5z" />
<glyph unicode="[" horiz-adv-x="390" d="M107 -111h241q3 59 -4 107h-122l1 523h125q4 54 -4 108h-244z" />
<glyph unicode="\" horiz-adv-x="504" d="M158 623l301 -697q-7 -15 -48.5 -19t-64.5 8l-301 695q14 12 53 16.5t60 -3.5z" />
<glyph unicode="]" horiz-adv-x="390" d="M283 -111l7 738h-244q-8 -54 -5 -108h125l1 -523h-122q-6 -48 -3 -107h241z" />
<glyph unicode="_" horiz-adv-x="434" d="M51 -20q0 14 3.5 55.5t7.5 53.5h322q0 -20 -3 -57.5t-7 -51.5h-323z" />
<glyph unicode="{" horiz-adv-x="447" d="M239 -111q-57 0 -88.5 34t-31.5 89q0 21 11.5 73.5t11.5 69.5q0 54 -82 51v107q82 -4 82 50q0 9 -5.5 38t-11.5 60t-6 45q0 55 31.5 89t88.5 34h143q8 -54 4 -108h-87q-14 0 -21.5 -0.5t-16.5 -4t-13 -11t-4 -20.5q0 -8 8 -54t8 -59q0 -23 -6 -43.5t-26.5 -40 t-52.5 -24.5v-10q32 -5 52.5 -24.5t26.5 -40t6 -43.5q0 -9 -8 -57t-8 -55q0 -10 3.5 -17.5t7.5 -11.5t13 -5.5t15 -2t18 -0.5h78q10 -61 3 -108h-143z" />
<glyph unicode="|" horiz-adv-x="344" d="M120 -38l4 571q50 12 100 11l-4 -571q-33 -8 -100 -11z" />
<glyph unicode="}" horiz-adv-x="448" d="M208 -111h-142q-7 47 2 108h78q15 0 23 0.5t17 4t13 11.5t4 21q0 6 -7.5 54.5t-7.5 57.5q0 23 6 43.5t26 40t53 24.5v10q-33 5 -53 24.5t-26 40t-6 43.5q0 13 7.5 59t7.5 54q0 13 -3.5 20.5t-12.5 11t-16.5 4t-22.5 0.5h-87q-3 54 5 108h142q38 0 66 -16t41.5 -43.5 t13.5 -63.5q0 -18 -12 -75.5t-12 -67.5q0 -54 83 -50v-108q-83 4 -83 -50q0 -17 12 -69.5t12 -73.5q0 -55 -32 -89t-89 -34z" />
<glyph unicode="~" horiz-adv-x="597" d="M299 272l99 -66l18 128q25 0 60.5 -19t45.5 -36q-14 -89 -41.5 -130.5t-89.5 -41.5q-28 0 -62 13.5t-54 26t-56 36.5l-100 67l-18 -129q-25 0 -60 19t-45 36q13 89 40.5 130.5t89.5 41.5q21 0 43.5 -6t48 -20t39.5 -22.5t42 -27.5z" />
<glyph unicode="&#xa1;" horiz-adv-x="288" d="M38 251q-6 13 -6.5 47t5.5 69q14 5 55.5 5.5t59.5 -2.5q2 -99 4 -116q-17 -7 -56.5 -7.5t-61.5 4.5zM49 163q22 12 76 29q6 -12 14 -66.5t14 -110.5t7 -87q-20 -10 -65.5 -18t-78.5 -10z" />
<glyph unicode="&#xa2;" horiz-adv-x="486" d="M297 148q47 0 104 13q1 -50 -4 -103q-42 -13 -83 -15l-1 -69q-51 -16 -104 -13l1 93q-56 19 -90 63t-35 100l-1 23q-1 64 33 111t88 67l1 71q51 16 104 13v-74q55 -8 94 -33q0 -14 -10.5 -51t-17.5 -49q-51 27 -97 27q-28 0 -51 -21t-23 -55v-22q0 -37 27 -56.5t65 -19.5 z" />
<glyph unicode="&#xa3;" horiz-adv-x="560" d="M175 104h215q1 -20 -4 -54.5t-11 -49.5h-364q2 3 17 22t24 32t18 33.5t9 37.5q0 30 -9 67h-90q-1 9 0 35.5t4 34.5h68q-4 19 -4 34q0 89 54 130.5t140 41.5q32 0 66 -7.5t56 -16.5t29 -17q0 -13 -12 -49.5t-21 -51.5q-9 5 -23.5 10.5t-30 10t-30 7t-23.5 2.5 q-10 0 -19.5 -1t-20.5 -5.5t-19 -11t-14 -19t-6 -29.5q0 -10 7 -28h140q2 -13 1 -37t-4 -33h-114v-2q0 -76 -29 -86z" />
<glyph unicode="&#xa5;" horiz-adv-x="620" d="M509 163h-123v-34h134q0 -4 -0.5 -10t-1.5 -12.5t-2.5 -13t-3.5 -11.5t-3 -8h-76q-3 -49 -13 -74l-217 -2q-2 32 9 76h-130q0 7 4.5 28t8.5 27h159l-1 34h-171q0 7 4.5 28t8.5 27h130l-135 186q12 14 35 30.5t45.5 28.5t33.5 13l125 -215q26 18 49 50t33 59l-76 19 q3 37 15 74h203q16 -36 -19 -101t-109 -144h95q0 -6 -1.5 -17.5t-4.5 -22t-5 -15.5z" />
<glyph unicode="&#xa7;" horiz-adv-x="415" d="M355 114q1 -57 -31.5 -93.5t-103.5 -36.5q-67 0 -160 24q0 16 5 52.5t10 49.5q81 -26 136 -26q23 0 23 18q0 7 -6 13t-25 15l-44 20q-21 9 -36 18.5t-30.5 22.5t-23.5 30t-8 37q0 56 46 80q-44 33 -44 80q0 117 131 117q89 0 146 -22q1 -33 -15 -93q-88 19 -116 19 q-14 0 -14 -16q0 -5 4 -9.5t11 -8t23 -10.5l41 -18q43 -19 61.5 -43.5t18.5 -60.5q1 -54 -39 -78q40 -30 40 -81zM193 270q0 -14 24 -27q16 2 16 18q0 7 -5 12.5t-22 13.5q-13 -6 -13 -17z" />
<glyph unicode="&#xa9;" horiz-adv-x="722" d="M361 538q59 0 107.5 -15.5t82 -42.5t56.5 -63.5t34 -78.5t11 -87q0 -58 -17.5 -108.5t-52 -91.5t-91.5 -64.5t-130 -23.5t-129.5 23.5t-91 64.5t-52 91.5t-17.5 108.5q0 32 5.5 62.5t17 59.5t28.5 54t41 45.5t53 35t66 22.5t79 8zM154 251q0 -99 52 -155t155 -56 q70 0 117 26.5t68.5 73t21.5 111.5q0 99 -51.5 154.5t-155.5 55.5q-69 0 -116 -26t-69 -72.5t-22 -111.5zM382 197q31 0 67 8q1 -32 -2 -67q-32 -9 -76 -9q-52 0 -88.5 32.5t-36.5 79.5l-1 15q-1 36 16.5 64.5t45.5 43.5t60 15q48 0 85 -23q0 -9 -7.5 -33t-11.5 -32 q-33 18 -62 18q-18 0 -33 -13.5t-15 -35.5v-14q0 -24 17.5 -36.5t41.5 -12.5z" />
<glyph unicode="&#xab;" horiz-adv-x="712" d="M262 486q12 -7 25 -21.5t24.5 -31t16.5 -29.5l-137 -102l144 -87q-10 -24 -29.5 -53t-34.5 -41l-227 176zM498 476q11 -7 24.5 -21.5t25 -31t16.5 -29.5l-138 -102l145 -87q-10 -24 -29.5 -53t-34.5 -41l-227 176z" />
<glyph unicode="&#xad;" horiz-adv-x="387" d="M80 171q0 9 1.5 31.5t4 46t4.5 31.5h219q1 -19 -2.5 -56.5t-6.5 -52.5h-220z" />
<glyph unicode="&#xae;" horiz-adv-x="722" d="M361 538q59 0 107.5 -15.5t82 -42.5t56.5 -63.5t34 -78.5t11 -87q0 -58 -17.5 -108.5t-52 -91.5t-91.5 -64.5t-130 -23.5t-129.5 23.5t-91 64.5t-52 91.5t-17.5 108.5q0 32 5.5 62.5t17 59.5t28.5 54t41 45.5t53 35t66 22.5t79 8zM361.5 40q69.5 0 116.5 26.5t68.5 73 t21.5 111.5q0 99 -51.5 154.5t-155 55.5t-155.5 -55.5t-52 -154.5q0 -65 22 -111.5t69 -73t116.5 -26.5zM473 296v1q0 -53 -38 -76q19 -24 51 -61q-31 -40 -47 -44q-31 28 -75 91h-33q0 -10 -0.5 -36t-0.5 -44q-36 -7 -67 -3v85.5v93.5q0 18 -1 31t-2 17.5t-3.5 12 t-3.5 11.5q15 7 36 11.5t28 3.5q8 -11 12 -40q6 11 17.5 23t17.5 16q12 1 27 0q82 -1 82 -75v-9v-9zM331 323v-65h46q33 0 33 43q0 13 -5 20t-12 9.5t-18 2.5h-9.5h-8.5h-7h-6t-4.5 -1t-4 -2t-3 -3t-1.5 -4z" />
<glyph unicode="&#xb0;" horiz-adv-x="232" d="M207 463q0 -40 -25 -65t-66 -25q-39 0 -65 24t-26 65q0 32 23 59.5t68 27.5q42 0 66.5 -24.5t24.5 -61.5zM151 463q0 10 -3 18.5t-11.5 14.5t-20.5 6q-18 0 -26.5 -12.5t-8.5 -27.5q0 -17 9.5 -29.5t25.5 -12.5q10 0 18 5.5t12.5 15t4.5 22.5z" />
<glyph unicode="&#xb2;" horiz-adv-x="445" d="M335 256h-276l2 71q2 65 116 159q52 43 52 84q0 20 -14.5 31.5t-41.5 11.5q-30 0 -72 -30q-4 5 -12 20.5t-14.5 33t-8.5 26.5q20 18 54 30.5t72 12.5q40 0 72.5 -15.5t51.5 -44t19 -65.5q0 -73 -71 -138q-17 -15 -44 -37.5t-41 -35t-15 -19.5l181 2q-2 -61 -10 -97z" />
<glyph unicode="&#xb3;" horiz-adv-x="445" d="M292 489q25 -12 42.5 -36t17.5 -60q0 -28 -10.5 -53.5t-31 -46.5t-54 -33.5t-75.5 -12.5q-40 0 -77.5 10t-54.5 24q6 46 26 88q50 -27 110 -27q65 0 65 57q0 17 -12 28t-32 11h-85q0 11 2.5 38.5t5.5 39.5h53q52 0 52 56q0 21 -17.5 31.5t-42.5 10.5q-20 0 -43 -8 t-31 -16q-7 6 -19 37.5t-13 43.5q17 13 51 23.5t72 10.5q69 0 107 -31.5t38 -85.5q0 -56 -44 -99z" />
<glyph unicode="&#xb7;" horiz-adv-x="600" d="M260 348q19 0 35 -17.5t16 -38.5q0 -9 -3 -17.5t-9 -15.5t-15 -11t-20 -4q-21 0 -37 15.5t-16 34.5q0 14 9 22q11 11 28 13q-9 2 -20 2q7 17 32 17z" />
<glyph unicode="&#xb9;" horiz-adv-x="445" d="M272 362l80 -1q-2 -54 -11 -93l-283 -1q2 41 11 95h97l1 226l-89 -38q-3 8 -8 26.5t-8.5 39.5t-4.5 32q20 8 103 35t96 29q7 1 12 -4t5 -13z" />
<glyph unicode="&#xbb;" horiz-adv-x="712" d="M213 110q-17 12 -37 37t-29 45l138 102l-144 87q9 24 29 53t35 41l227 -176zM449 100q-11 8 -24.5 22t-24.5 30.5t-17 29.5l138 102l-144 87q9 25 29 53.5t35 40.5l226 -176z" />
<glyph unicode="&#xbf;" horiz-adv-x="375" d="M102 250q-5 13 -5.5 47t5.5 69q14 5 55.5 6t59.5 -2q2 -100 4 -117q-17 -6 -56.5 -7t-62.5 4zM177 7q42 5 78 37q19 -19 46 -83q-10 -14 -29.5 -28t-51.5 -25t-65 -11q-58 0 -103 33t-45 94q0 45 34 75.5t76 43.5q0 3 -1 17.5t0 23.5q30 11 89 13q0 -66 -8 -86 q-25 -8 -47.5 -25.5t-22.5 -39.5q0 -20 14.5 -31t35.5 -8z" />
<glyph unicode="&#xd7;" horiz-adv-x="442" d="M286 252l85 -90q-1 -5 -7.5 -15t-15.5 -20.5t-18 -20t-16 -15.5l-92 95l-92 -95q-10 7 -23.5 20.5t-24.5 27.5t-11 21l88 92l-83 87q6 12 28.5 36.5t35.5 31.5l83 -88l83 87q9 -4 23 -17.5t25.5 -28.5t13.5 -23z" />
<glyph unicode="&#x2c7;" horiz-adv-x="600" d="M363 595q10 2 15 -6q-40 -59 -107 -122t-92 -75q-34 27 -76 81.5t-80 121.5q2 8 13 7q10 -8 43.5 -36.5t56.5 -46.5t43 -32q113 57 184 108z" />
<glyph unicode="&#x300;" d="M-405 597q21 -15 73 -65t98 -108q-2 -8 -13 -7q-37 26 -112 67.5t-107 52.5q3 19 22.5 37.5t38.5 22.5z" />
<glyph unicode="&#x301;" d="M-345 597q21 -4 48.5 -22.5t38.5 -37.5q-18 -7 -53.5 -30.5t-67 -48.5t-47.5 -41q-11 -1 -16 7q15 41 36.5 81t37 62t23.5 30z" />
<glyph unicode="&#x302;" d="M-365 602q24 -25 75.5 -92.5t80.5 -110.5q-1 -8 -12 -7q-10 8 -27 22.5t-31 26.5t-30.5 25.5t-33 26.5t-30.5 22q-75 -36 -175 -116q-10 -2 -16 6q28 42 72 88t78.5 74t48.5 35z" />
<glyph unicode="&#x303;" d="M-407 481q-25 -14 -45 -47q-3 0 -9 3q-7 14 -9 32q-4 34 14 58.5t55 24.5q18 0 68 -29.5t52 -31.5q27 18 40 48q3 0 9 -4q16 -20 18 -45q3 -27 -22 -48t-51 -21q-12 0 -32 10t-47 26.5t-41 23.5z" />
<glyph unicode="&#x307;" d="M-298 550q5 -12 5.5 -43.5t-5.5 -64.5q-13 -5 -51.5 -5.5t-56.5 2.5q-1 93 -3 109q16 5 53 6t58 -4z" />
<glyph unicode="&#x308;" d="M-442 553q5 -12 5.5 -43.5t-5.5 -63.5q-12 -5 -50.5 -5.5t-55.5 2.5q-2 92 -4 108q16 5 52.5 6t57.5 -4zM-280 553q5 -12 5.5 -43.5t-5.5 -63.5q-12 -5 -50.5 -5.5t-55.5 2.5q-1 92 -3 108q16 5 52.5 6t56.5 -4z" />
<glyph unicode="&#x30a;" d="M-440 500q0 -36 -22 -58t-58 -22q-14 0 -26 3.5t-22 10t-17.5 16t-11.5 22t-4 27.5q0 28 20.5 53t60.5 25q19 0 34.5 -6.5t25.5 -17t15 -24t5 -29.5zM-493 499q0 13 -6.5 22t-20.5 9t-20.5 -9.5t-6.5 -21.5q0 -6 2 -12t5 -10.5t8.5 -7t11.5 -2.5q11 0 19 9t8 23z" />
<glyph unicode="&#x327;" d="M-278 -24q27 0 48 -21t21 -49q0 -29 -22 -50.5t-61 -21.5q-41 0 -69 21q-19 14 -15 32q17 -6 42 -6q22 0 34.5 11.5t12.5 29.5q0 12 -6 22t-13 10q-4 -9 -28.5 -13.5t-35.5 2.5l26 94l53 -19l-14 -47q10 5 27 5z" />
<glyph unicode="&#x335;" d="M-471 171q-1 15 2.5 56t6.5 53h196q1 -19 -2 -56.5t-7 -52.5h-196z" />
<glyph unicode="&#x338;" d="M-279 370q8 5 21 7.5t32 -1.5t33 -16l-348 -360q-10 -12 -36.5 -13.5t-48.5 13.5z" />
<glyph unicode="&#x5b0;" d="M162 31q7 -17 0 -51q-6 -2 -24 -2.5t-26 0.5q0 3 -0.5 11.5t-0.5 14.5v13.5t-1 12.5q8 2 25 2.5t27 -1.5zM162 -45q7 -16 0 -50q-6 -3 -24 -3t-26 1q-1 44 -2 51q8 3 25 3.5t27 -2.5z" />
<glyph unicode="&#x5b1;" d="M-37 -9q7 -17 0 -50q-6 -3 -24 -3t-27 1q0 43 -1 51q7 2 24.5 2.5t27.5 -1.5zM39 -9q7 -17 0 -50q-6 -3 -24 -3t-26 1v8v11.5t-0.5 11.5t-0.5 11t-1 9q8 2 25 2.5t27 -1.5zM121 -9q7 -17 0 -50q-6 -3 -24 -3t-26 1q-1 43 -1 51q7 2 24 2.5t27 -1.5zM1 -83q7 -17 0 -50 q-6 -3 -24 -3t-26 1q-1 43 -2 51q8 2 25 2.5t27 -1.5zM121 -84q7 -17 0 -51q-6 -2 -24 -2.5t-26 1.5q-1 43 -1 51q7 2 24 2.5t27 -1.5z" />
<glyph unicode="&#x5b2;" d="M327 9q7 -17 0 -51q-6 -2 -24.5 -2.5t-26.5 0.5v7.5v8.5v9.5v10t-0.5 9t-0.5 7.5q7 2 24.5 2.5t27.5 -1.5zM82 10h158q2 -6 0 -27t-6 -27h-157q-1 3 -0.5 11t1 16.5t2 16.5t2.5 10zM327 -67q7 -16 0 -50q-6 -3 -24.5 -3t-26.5 1q0 44 -1 51q7 3 24.5 3.5t27.5 -2.5z" />
<glyph unicode="&#x5b3;" d="M327 -40q-6 -2 -24.5 -2.5t-26.5 0.5q-1 44 -2 52q8 2 25.5 2.5t26.5 -1.5q8 -17 1 -51zM86 13h157q2 -6 0 -27.5t-6 -26.5h-51q2 -34 7 -67q-31 -8 -62 0q5 34 7 67h-58q-1 8 0.5 28.5t5.5 25.5zM274 -66q8 3 25.5 3.5t26.5 -2.5q8 -16 1 -50q-6 -3 -24.5 -3t-26.5 1 q-1 44 -2 51z" />
<glyph unicode="&#x5b4;" d="M326 11q8 -17 1 -51q-6 -2 -24.5 -2.5t-26.5 0.5q-1 44 -2 52q8 2 25.5 2.5t26.5 -1.5z" />
<glyph unicode="&#x5b5;" d="M326 11q8 -17 1 -51q-6 -2 -24.5 -2.5t-26.5 0.5q-1 44 -2 52q8 2 25.5 2.5t26.5 -1.5zM409 11q7 -17 0 -51q-6 -2 -24 -2.5t-27 0.5q0 44 -1 52q7 2 24.5 2.5t27.5 -1.5z" />
<glyph unicode="&#x5b6;" d="M-37 -9q7 -17 0 -50q-6 -3 -24 -3t-27 1q0 43 -1 51q7 2 24.5 2.5t27.5 -1.5zM39 -9q7 -17 0 -50q-6 -3 -24 -3t-26 1v8v11.5t-0.5 11.5t-0.5 11t-1 9q8 2 25 2.5t27 -1.5zM1 -83q7 -17 0 -50q-6 -3 -24 -3.5t-26 1.5q-1 43 -1 51q7 2 24 2.5t27 -1.5z" />
<glyph unicode="&#x5b7;" d="M82 10h158q2 -6 0 -27t-6 -27h-157q-1 3 -0.5 11t1 16.5t2 16.5t2.5 10z" />
<glyph unicode="&#x5b8;" d="M240 10q2 -6 0 -27t-6 -27h-52q3 -33 8 -67q-31 -8 -62 0q5 34 7 67h-58q-1 3 -0.5 11t1 16.5t2 16.5t2.5 10h158z" />
<glyph unicode="&#x5b9;" d="M1 -83q7 -17 0 -51q-6 -2 -24 -2.5t-26 1.5q-1 43 -1 51q7 2 24 2.5t27 -1.5z" />
<glyph unicode="&#x5ba;" d="M1 -83q7 -17 0 -51q-6 -2 -24 -2.5t-26 1.5q-1 43 -1 51q7 2 24 2.5t27 -1.5z" />
<glyph unicode="&#x5bb;" d="M1 -83q7 -17 0 -51q-6 -2 -24 -2.5t-26 1.5q-1 43 -1 51q7 2 24 2.5t27 -1.5zM61 -143q7 -16 0 -50q-5 -2 -23.5 -2.5t-26.5 0.5q0 44 -1 51q7 3 24.5 3.5t26.5 -2.5zM121 -202q7 -16 0 -50q-6 -2 -24 -2.5t-26 0.5q0 44 -1 51q7 3 24.5 3.5t26.5 -2.5z" />
<glyph unicode="&#x5bc;" d="M1 -83q7 -17 0 -51q-6 -2 -24 -2.5t-26 1.5q-1 43 -1 51q7 2 24 2.5t27 -1.5z" />
<glyph unicode="&#x5be;" horiz-adv-x="390" d="M80 317q0 9 1.5 31.5t4 45.5t4.5 32h219q1 -20 -2.5 -57t-6.5 -52h-220z" />
<glyph unicode="&#x5c1;" d="M56 538q7 -17 0 -50q-5 -3 -23.5 -3t-26.5 1q0 43 -1 51q7 3 24.5 3t26.5 -2z" />
<glyph unicode="&#x5c2;" d="M114 -83q7 -17 0 -51q-6 -2 -24 -2.5t-26 1.5q-1 43 -2 51q8 2 25 2.5t27 -1.5z" />
<glyph unicode="&#x5c7;" d="M259 -124q2 -6 0 -27t-6 -27h-51q2 -33 7 -67q-31 -8 -62 0q5 34 7 67h-58q-1 8 0.5 29t5.5 25h157z" />
<glyph unicode="&#x5d0;" horiz-adv-x="477" d="M391 144l17 -17t18.5 -19t13.5 -15.5t8 -14.5q-6 -9 -16.5 -22.5t-19 -23.5t-22 -25t-16.5 -18q-15 18 -58 62l-156 161q-16 -60 -16 -105l59 -1q-1 -31 -3.5 -61.5t-7.5 -44.5h-138q-18 0 -18 22v39q0 50 9 94.5t20 61.5q28 13 73 18l-53 55l-5 5q-50 51 -49 66 q8 10 23.5 26t32 32t25.5 23q48 -55 55 -64l147 -153q15 55 14 89l-55 1q2 75 10 112l143 -1q17 0 17 -22l-1 -32q0 -42 -8.5 -82.5t-23.5 -61.5q-34 -14 -78 -21z" />
<glyph unicode="&#x5d1;" horiz-adv-x="450" d="M310 112h120q-2 -70 -11 -112h-393q2 70 11 112h227l1 120q0 43 -13.5 62.5t-48.5 19.5h-167q2 70 11 113h205q37 0 64 -13t42 -35t21.5 -48t6.5 -56v-116q-26 -24 -76 -47z" />
<glyph unicode="&#x5d2;" horiz-adv-x="369" d="M293 278q5 -32 12.5 -62t15 -54.5t15.5 -40.5t15 -20q-14 -28 -37 -64t-35 -48q-16 -3 -41.5 36.5t-36.5 83.5l-8 38q-4 -33 -16.5 -66.5t-22.5 -47.5q-40 -34 -115 -43q-18 55 -23 114q47 6 94 27t75 51q-11 56 -16 95q-1 11 -3 17.5t-8 13t-17 6.5h-83q5 75 15 113h82 h75q23 0 34 -10.5t15 -44.5q6 -51 14 -94z" />
<glyph unicode="&#x5d3;" horiz-adv-x="426" d="M390 314h-67v-304q-32 -11 -124 -19q0 38 1 139t0 130q33 27 81 54l-265 1q2 69 11 112h374q-2 -70 -11 -113z" />
<glyph unicode="&#x5d4;" horiz-adv-x="496" d="M323 -9q-1 0 -1 46.5v108.5v86q-1 44 -13.5 63t-48.5 19h-215q3 70 12 113h254q37 0 64 -13t42 -35t22 -48t7 -56v-265q-33 -11 -123 -19zM47 -9l-1 209q19 7 59 13.5t65 6.5q0 -20 -0.5 -90.5t-0.5 -119.5q-33 -11 -122 -19z" />
<glyph unicode="&#x5d5;" horiz-adv-x="266" d="M211 10q-32 -11 -124 -19l1 324h-73q2 69 11 112h163q13 0 17.5 -6.5t4.5 -20.5q1 -208 0 -390z" />
<glyph unicode="&#x5d6;" horiz-adv-x="304" d="M277 427q-3 -70 -12 -113h-75q0 -46 19.5 -146t35.5 -138q-15 -12 -52 -25.5t-62 -17.5q-15 21 -34 122.5t-18 150.5q23 28 72 55h-131q2 69 11 112h246z" />
<glyph unicode="&#x5d7;" horiz-adv-x="520" d="M469 275q0 -248 1 -265q-32 -11 -122 -19q-1 31 -1 122.5v118.5q-1 44 -13.5 63t-48.5 19h-105q-1 -286 1 -304q-33 -11 -123 -19q-2 123 0 259q34 32 84 64h-102q2 71 11 113h285q37 0 63.5 -13t41.5 -35t21.5 -48t6.5 -56z" />
<glyph unicode="&#x5d8;" horiz-adv-x="522" d="M257 0h-166l-25 314h-50q3 70 11 113h130q8 0 12.5 -3.5t6 -9t2.5 -15.5l22 -288h50q45 0 72 24.5t27 70.5v110q-19 -6 -72 -27q-10 19 -19 51t-12 54q40 13 106 25t97 12q23 0 23 -22v-203q0 -21 -4.5 -42.5t-13 -41.5t-21.5 -38.5t-30.5 -33.5t-39 -26t-48.5 -17.5 t-58 -6.5z" />
<glyph unicode="&#x5d9;" horiz-adv-x="259" d="M191 181q8 23 16 73.5t8 95.5v40q0 37 -33 37h-153q-9 -43 -11 -113h71v-10q0 -69 -15 -146q25 -3 63 5t54 18z" />
<glyph unicode="&#x5da;" horiz-adv-x="429" d="M379 -211q-33 -11 -123 -19l-1 462q-1 44 -13.5 63t-47.5 19h-178q2 71 11 114l217 -1q37 0 64 -13t42 -35t22 -48t7 -56v-486z" />
<glyph unicode="&#x5db;" horiz-adv-x="421" d="M185 0q48 0 88 20t64 51t37 66t13 69v30q0 78 -48.5 134.5t-130.5 56.5l-166 1q-9 -43 -12 -114h148q84 0 84 -90v-25q0 -89 -97 -88l-127 2q-9 -43 -11 -113h158z" />
<glyph unicode="&#x5dc;" horiz-adv-x="435" d="M273 6q-53 -9 -127 -12q-5 58 23 130q28 74 90 190h-228q-10 41 -14 121q-4 69 1 127q29 8 69.5 13t64.5 4q-11 -89 -14 -152h240q12 0 19.5 -9t7.5 -22q0 -16 -7.5 -41.5t-15.5 -45t-25.5 -59.5t-25.5 -59q-32 -77 -45 -120t-13 -65z" />
<glyph unicode="&#x5dd;" horiz-adv-x="521" d="M338 427q37 0 63.5 -13t41 -35t21.5 -48t6 -56v-163q-6 -67 -12 -111h-404q0 40 -0.5 132.5t-0.5 116.5q36 34 82 64h-95q5 75 16 113h282zM349 111q1 86 0 121q0 29 -4.5 46t-18 26.5t-37.5 9.5h-117q1 -105 2 -204z" />
<glyph unicode="&#x5de;" horiz-adv-x="525" d="M469 0h-220q3 70 12 112l98 -1v136q0 22 -9 40t-25.5 28t-36.5 10q-26 0 -48.5 -12.5t-30.5 -26.5q-2 -15 -6.5 -60.5t-11 -103.5t-13.5 -116q-30 -6 -127 -11q8 61 24 158.5t25 137.5q-12 7 -26.5 19t-26 26.5t-15.5 26.5q10 18 40 46t49 40q18 -30 74 -85q62 71 130 71 q70 0 112.5 -48t42.5 -122v-154q-4 -65 -11 -111z" />
<glyph unicode="&#x5df;" horiz-adv-x="282" d="M227 -166q-32 -11 -124 -19v500h-87q2 69 11 112h170q29 0 29 -31q0 -84 0.5 -300.5t0.5 -261.5z" />
<glyph unicode="&#x5e0;" horiz-adv-x="322" d="M263 0h-248q2 65 13 112h129q-6 56 -8 171q0 13 -3.5 20t-8 9t-12.5 2h-80q2 71 11 113h164q44 0 46 -67q2 -72 6.5 -157t4.5 -90q-5 -56 -14 -113z" />
<glyph unicode="&#x5e1;" horiz-adv-x="505" d="M470 236v-18q0 -101 -61.5 -164.5t-157.5 -63.5q-91 0 -147.5 55.5t-56.5 150.5q0 39 14 64q22 21 69 54h-95q3 70 12 113h243q83 0 131.5 -56t48.5 -135zM347 212v12q0 43 -20 66.5t-67 23.5h-85q-11 -28 -11 -80q0 -69 23 -99.5t72 -30.5q88 0 88 108z" />
<glyph unicode="&#x5e2;" horiz-adv-x="491" d="M422 427q7 0 11 -1.5t6.5 -5t3.5 -8.5t1 -12v-113q0 -61 -18 -107.5t-61 -87.5t-116 -77l-205 -100q-20 67 -20 118l132 63l-72 128q-70 124 -67 158q13 12 47.5 33.5t51.5 29.5q11 -44 56 -131l62 -123q-10 -34 -48 -80l44 21q54 26 72 57.5t19 87.5l-1 37h-74 q3 71 12 113h164z" />
<glyph unicode="&#x5e3;" horiz-adv-x="469" d="M429 -166q-32 -11 -123 -19l-1 417q-1 44 -14 63t-48 19h-80q0 -3 6 -54.5t7 -72.5q-30 -15 -127 -30q3 150 14 270h231q36 0 63 -13t41.5 -35t21.5 -48t7 -56z" />
<glyph unicode="&#x5e4;" horiz-adv-x="469" d="M232 0h-187q5 75 16 112l140 -1q108 0 108 88v25q0 43 -19 66.5t-64 23.5h-68q0 -3 6 -46t7 -61q-30 -15 -127 -30q3 139 14 250h199q81 1 128.5 -55.5t47.5 -135.5v-30q0 -34 -12.5 -69t-36.5 -66t-64 -51t-88 -20z" />
<glyph unicode="&#x5e5;" horiz-adv-x="491" d="M294 149q36 -54 52.5 -79t42 -66t36.5 -65t11 -38q0 -8 -43 -38t-50 -30q-4 27 -64.5 123t-125 192.5t-71.5 111.5l-6 12t-7 15t-7.5 16.5t-8 17.5t-7 17t-5.5 16t-3.5 14t-0.5 12q5 6 19.5 16t25.5 16.5t32 18.5t23 13q8 -39 53 -130q20 -39 82 -132q44 105 44 132 l-54 1q5 65 12 112l157 -1q19 0 19 -27q0 -34 -11.5 -77t-26 -78t-29.5 -63q-15 -8 -89 -32z" />
<glyph unicode="&#x5e6;" horiz-adv-x="455" d="M417 365q0 -21 -3.5 -47.5t-11 -53t-17.5 -38.5q-47 -20 -94 -29q68 -70 109 -99q-12 -81 -16 -98h-343q3 70 12 112l228 -1q-38 9 -102 56.5t-111 113.5q-14 20 -28.5 51.5t-16.5 48.5q6 7 24.5 18.5t46.5 27t31 17.5q7 -21 27 -61t33 -60q33 -50 92 -112q12 24 19 55 t7 48l-61 1q3 69 12 112l145 -1q19 0 19 -27z" />
<glyph unicode="&#x5e7;" horiz-adv-x="489" d="M248 -3q-5 12 -0.5 66t21.5 106q27 86 50 145h-277q2 70 11 113h377q12 0 20 -10t8 -26q0 -11 -2.5 -26t-8.5 -34t-12 -37.5t-15.5 -47.5t-16.5 -53q-16 -52 -26 -109.5t-8 -79.5q-18 -2 -121 -7zM49 -158v382q16 6 59 13t66 8v-384q-33 -11 -125 -19z" />
<glyph unicode="&#x5e8;" horiz-adv-x="423" d="M248 -9v241q0 29 -5 46t-18.5 26.5t-38.5 9.5l-170 1q2 69 11 112h210q37 0 64 -13t41.5 -35t21.5 -48t7 -56v-265q-31 -11 -123 -19z" />
<glyph unicode="&#x5e9;" horiz-adv-x="598" d="M557 405v-107q0 -86 -37 -153.5t-104.5 -106t-155.5 -38.5l-162 -1l-34 315h-48q3 71 11 113h126q11 0 15 -4.5t5 -16.5l16 -172q23 36 36.5 91.5t13.5 101.5h110q9 -61 -19.5 -137.5t-74.5 -111.5q-31 10 -64 38l10 -105h62q77 0 124 40.5t50 110.5q1 13 1 52l-46 1 q3 74 12 112h137q9 0 12.5 -5t3.5 -17z" />
<glyph unicode="&#x5ea;" horiz-adv-x="539" d="M354 427q37 0 64 -13t41.5 -35t21.5 -48t7 -56v-265q-32 -11 -123 -19v241q0 43 -13 62.5t-49 19.5h-108q3 -37 26 -119.5t23 -86.5q-2 -12 -7.5 -32.5t-12.5 -42t-13 -33.5h-196q3 69 12 111q8 0 42.5 -0.5t54.5 -0.5q-27 88 -30 140q10 20 65 64h-106q2 71 11 113h290z " />
<glyph unicode="&#x5f3;" horiz-adv-x="214" d="M146 567q25 -13 31 -51q2 -12 2.5 -22.5t-2 -21.5t-5 -19t-9.5 -19t-12 -18t-16 -20.5t-18 -21t-22 -23.5q-7 -7 -10.5 -11t-9 -10t-10.5 -11q-8 6 -10 14q22 34 24 82.5t-17 68.5q11 18 40 46t44 37z" />
<glyph unicode="&#x5f4;" horiz-adv-x="340" d="M126 562q25 -13 31 -51q1 -11 1 -21t-1 -19t-4.5 -18.5t-7 -17t-10.5 -17.5t-12.5 -17t-16 -19t-18 -20t-21 -23t-23.5 -25q-8 6 -10 14q23 34 24.5 82.5t-17.5 68.5q11 18 40.5 46t44.5 37zM272 562q25 -13 31 -51q1 -11 1 -21t-0.5 -19t-4.5 -18.5t-7 -17t-10.5 -17.5 t-13 -17t-16 -19t-18 -20t-21 -23t-23.5 -25q-8 6 -10 14q23 34 24.5 82.5t-17.5 68.5q11 18 40.5 46t44.5 37z" />
<glyph unicode="&#x2000;" horiz-adv-x="358" />
<glyph unicode="&#x2001;" horiz-adv-x="717" />
<glyph unicode="&#x2002;" horiz-adv-x="358" />
<glyph unicode="&#x2003;" horiz-adv-x="717" />
<glyph unicode="&#x2004;" horiz-adv-x="239" />
<glyph unicode="&#x2005;" horiz-adv-x="179" />
<glyph unicode="&#x2006;" horiz-adv-x="119" />
<glyph unicode="&#x2007;" horiz-adv-x="119" />
<glyph unicode="&#x2008;" horiz-adv-x="89" />
<glyph unicode="&#x2009;" horiz-adv-x="143" />
<glyph unicode="&#x200a;" horiz-adv-x="39" />
<glyph unicode="&#x2010;" horiz-adv-x="387" d="M80 171q0 9 1.5 31.5t4 46t4.5 31.5h219q1 -19 -2.5 -56.5t-6.5 -52.5h-220z" />
<glyph unicode="&#x2011;" horiz-adv-x="387" d="M80 171q0 9 1.5 31.5t4 46t4.5 31.5h219q1 -19 -2.5 -56.5t-6.5 -52.5h-220z" />
<glyph unicode="&#x2012;" horiz-adv-x="387" d="M80 171q0 9 1.5 31.5t4 46t4.5 31.5h219q1 -19 -2.5 -56.5t-6.5 -52.5h-220z" />
<glyph unicode="&#x2013;" horiz-adv-x="608" d="M80 171q0 14 3.5 55.5t7.5 53.5h438q0 -13 -1.5 -35.5t-4 -43.5t-4.5 -30h-439z" />
<glyph unicode="&#x2014;" horiz-adv-x="833" d="M80 171q0 13 4 55.5t7 53.5h662q-2 -78 -10 -109h-663z" />
<glyph unicode="&#x2018;" horiz-adv-x="214" d="M88 309q-25 13 -31 51q-2 11 -2 21t1 19t4.5 18.5t7 17t10.5 17.5t12.5 17t16 19t18.5 20t21.5 23l22.5 25q9 -6 10 -14q-22 -34 -24 -82.5t17 -68.5q-11 -18 -40 -46t-44 -37z" />
<glyph unicode="&#x2019;" horiz-adv-x="215" d="M147 561q25 -13 31 -51q2 -11 2 -21.5t-1 -19t-5 -18t-7 -17t-10 -17.5t-13 -17.5t-16 -19t-18 -20t-21.5 -23t-22.5 -25.5q-9 6 -10 14q22 35 23.5 83.5t-16.5 68.5q10 18 39.5 45.5t44.5 37.5z" />
<glyph unicode="&#x201a;" horiz-adv-x="312" d="M181 130q27 -15 34 -56q2 -12 2 -23.5t-1 -21t-5 -20t-8 -19t-11.5 -19.5t-14 -19t-18 -21t-19.5 -22t-23 -25t-26 -28q-9 6 -11 15q25 38 26.5 91.5t-18.5 75.5q12 20 44 50.5t49 41.5z" />
<glyph unicode="&#x201c;" horiz-adv-x="361" d="M68 317q-25 13 -31 51q-2 11 -2 21t1 19t4.5 18.5t7 17t10.5 17.5t12.5 17t16 19t18.5 20t21.5 23l22.5 25q9 -6 10 -14q-22 -34 -24 -82.5t17 -68.5q-11 -18 -40 -46t-44 -37zM214 317q-25 13 -31 51q-1 11 -1.5 21t0.5 19t5 18.5t7 17t10.5 17.5t13 17t16 19t18 20 t21 23t23.5 25q8 -6 10 -14q-23 -34 -24.5 -82.5t17.5 -68.5q-8 -12 -25.5 -30.5t-34 -33t-25.5 -19.5z" />
<glyph unicode="&#x201d;" horiz-adv-x="361" d="M147 562q25 -13 31 -51q1 -11 1 -21t-1 -19t-4.5 -18.5t-7 -17t-10.5 -17.5t-12.5 -17t-16 -19t-18 -20t-21 -23t-23.5 -25q-8 6 -10 14q23 34 24.5 82.5t-17.5 68.5q11 18 40.5 46t44.5 37zM293 562q25 -13 31 -51q1 -11 1 -21t-0.5 -19t-4.5 -18.5t-7 -17t-10.5 -17.5 t-13 -17t-16 -19t-18 -20t-21 -23t-23.5 -25q-8 6 -10 14q23 34 24.5 82.5t-17.5 68.5q11 18 40.5 46t44.5 37z" />
<glyph unicode="&#x201e;" horiz-adv-x="361" d="M146 101q25 -13 31 -51q2 -11 2 -21t-1 -19t-4.5 -18.5t-7 -17t-10.5 -17.5t-12.5 -17t-16 -19t-18 -20.5t-21 -23t-23.5 -24.5q-8 6 -10 14q22 34 24 82.5t-17 68.5q11 18 40 46t44 37zM293 101q25 -13 31 -51q2 -12 2 -22.5t-2.5 -21.5t-5 -19t-9.5 -19t-12 -18 t-16 -20.5t-18 -21t-22 -23.5q-19 -21 -30 -32q-8 5 -10 14q23 34 24.5 82.5t-17.5 68.5q8 12 25.5 30.5t34 32.5t25.5 20z" />
<glyph unicode="&#x2020;" horiz-adv-x="520" d="M425 527q0 -13 -1.5 -35.5t-3.5 -43.5t-4 -30h-126l-2 -248q-40 -11 -99 -12l2 260h-146q0 14 3.5 55.5t7.5 53.5h135l1 120q48 14 99 11l-1 -131h135z" />
<glyph unicode="&#x2022;" horiz-adv-x="600" d="M264 407q50 0 91.5 -44.5t41.5 -99.5q0 -51 -34 -88t-89 -37q-54 0 -96 39.5t-42 90.5q0 35 23 56q30 28 73 33q-23 7 -51 7q7 17 28.5 30t54.5 13z" />
<glyph unicode="&#x2026;" horiz-adv-x="751" d="M212 114q5 -13 6 -46t-6 -67q-13 -6 -53.5 -6.5t-59.5 2.5q-1 98 -3 115q17 5 55.5 6t60.5 -4zM434 114q5 -13 5.5 -46t-5.5 -67q-13 -6 -54 -6.5t-59 2.5q-1 98 -3 115q17 5 55.5 6t60.5 -4zM651 114q5 -13 5.5 -46t-5.5 -67q-13 -6 -54 -6.5t-59 2.5q-1 98 -4 115 q17 5 56 6t61 -4z" />
<glyph unicode="&#x202f;" horiz-adv-x="143" />
<glyph unicode="&#x2039;" horiz-adv-x="540" d="M334 480q16 -12 35.5 -38t27.5 -46l-141 -98l142 -92q-10 -23 -30.5 -51.5t-36.5 -39.5l-221 182z" />
<glyph unicode="&#x203a;" horiz-adv-x="540" d="M206 108q-11 7 -24 22t-23.5 31.5t-15.5 29.5l140 98l-141 92q10 24 30.5 52t36.5 39l221 -182z" />
<glyph unicode="&#x2044;" horiz-adv-x="466" d="M305 614q25 13 66.5 11t54.5 -15l-268 -693q-17 -15 -61.5 -11t-56.5 20z" />
<glyph unicode="&#x205f;" horiz-adv-x="179" />
<glyph unicode="&#x2070;" horiz-adv-x="445" d="M218 251q-164 0 -164 193v72q-1 193 164 193t165 -193l-1 -70q0 -195 -164 -195zM218 344q31 0 44 21.5t14 78.5v75q0 53 -13 74.5t-45 22t-45 -21.5t-13 -75l1 -78q0 -38 6 -59t18 -29t33 -9z" />
<glyph unicode="&#x20aa;" horiz-adv-x="699" d="M80 -9v436h255q37 0 63.5 -12.5t41 -34.5t21.5 -47.5t7 -55.5q0 -92 -1 -97q-17 -13 -46 -19t-56 0q1 84 1 87q-1 43 -15.5 59.5t-46.5 16.5h-122v-64.5t-0.5 -78.5t-0.5 -72t0.5 -63.5t1.5 -35.5q-30 -12 -103 -19zM402 0h-164l-18 254q43 20 97 20l15 -173h69 q112 0 114 121q0 37 1 203h99v-187q0 -74 -25 -127.5t-73 -82t-115 -28.5z" />
<glyph unicode="&#x20ac;" horiz-adv-x="524" d="M433 101q6 -54 -10 -101h-67q-97 0 -156 46t-79 116h-72q0 7 3 28t6 27h55q-1 5 -1 9v21h-63q0 3 1 11t2 16.5t3 16.5t3 11h59q16 72 74.5 119t149.5 46l91 -1q5 -35 -8 -102h-53q-96 0 -121 -62h114q1 -10 -2 -29t-6 -26h-115v-3v-25v-2h123q1 -10 -2 -29t-6 -26h-109 q9 -30 38 -45.5t91 -15.5h57z" />
<glyph unicode="&#x2122;" horiz-adv-x="886" d="M878 65q2 -33 -10 -65h-151q0 12 3.5 33t7.5 32h25l-38 168l-66 -230q-9 -4 -32.5 -4t-28.5 3l-66 231l-32 -167h29q2 -35 -9 -65l-141 -1q-1 13 2 34t8 33h25q32 127 56 212l-35 18q7 41 14 50h118h10q6 -14 16 -47.5t25.5 -88.5t21.5 -73q13 45 26.5 98t21 79.5 t9.5 31.5h125q7 -8 14 -50l-35 -18q12 -46 19.5 -76t18 -70.5l17.5 -67.5h32zM27 345l315 1q5 -56 7 -116q-10 -3 -32.5 -6.5t-33.5 -2.5l-8 54h-45q0 -102 -1 -205h33q1 -13 -2 -36t-7 -34l-61 -1h-33h-55q-1 13 2 36t8 34h26q1 99 1 205h-48l-7 -46q-37 -8 -66 -6 q1 64 7 123z" />
<glyph unicode="&#x2212;" horiz-adv-x="600" d="M103 191q-1 14 3 55.5t7 53.5h321q1 -20 -2.5 -57.5t-6.5 -51.5h-322z" />
<glyph unicode="&#x25fc;" horiz-adv-x="500" d="M0 0z" />
<glyph unicode="&#xfb2a;" horiz-adv-x="598" d="M505 449q-6 -2 -24 -2.5t-26 0.5q-1 44 -1 51q7 3 24 3t27 -2q7 -16 0 -50zM557 405v-107q0 -86 -37 -153.5t-104.5 -106t-155.5 -38.5l-162 -1l-34 315h-48q2 71 11 113h126q11 0 15 -4.5t5 -16.5l16 -172q23 36 36.5 91.5t13.5 101.5h110q9 -61 -19.5 -137.5 t-74.5 -111.5q-31 10 -64 38l10 -105h62q51 0 89.5 18.5t60.5 52.5t24 80q1 13 1 52l-46 1q3 74 12 112h137q6 0 9.5 -2t5 -7t1.5 -13z" />
<glyph unicode="&#xfb2b;" horiz-adv-x="598" d="M117 450q-5 -3 -23.5 -3t-26.5 1q0 44 -1 51q7 3 24.5 3t26.5 -2q7 -17 0 -50zM557 405v-107q0 -86 -37 -153.5t-104.5 -106t-155.5 -38.5l-162 -1l-34 315h-48q2 71 11 113h126q11 0 15 -4.5t5 -16.5l16 -172q23 36 36.5 91.5t13.5 101.5h110q9 -61 -19.5 -137.5 t-74.5 -111.5q-31 10 -64 38l10 -105h62q51 0 89.5 18.5t60.5 52.5t24 80q1 13 1 52l-46 1q3 74 12 112h137q9 0 12.5 -5t3.5 -17z" />
<glyph unicode="&#xfb2c;" horiz-adv-x="598" d="M505 449q-6 -2 -24 -2.5t-26 0.5q-1 44 -1 51q7 3 24 3t27 -2q7 -16 0 -50zM557 405v-107q0 -86 -37 -153.5t-104.5 -106t-155.5 -38.5l-162 -1l-34 315h-48q2 71 11 113h126q11 0 15 -4.5t5 -16.5l16 -172q23 36 36.5 91.5t13.5 101.5h110q9 -61 -19.5 -137.5 t-74.5 -111.5q-31 10 -64 38l10 -105h62q51 0 89.5 18.5t60.5 52.5t24 80q1 13 1 52l-46 1q3 74 12 112h137q6 0 9.5 -2t5 -7t1.5 -13zM332 187q-1 43 -2 51q8 3 25 3t27 -2q7 -17 0 -50q-6 -3 -24 -3t-26 1z" />
<glyph unicode="&#xfb2d;" horiz-adv-x="598" d="M117 450q-5 -3 -23.5 -3t-26.5 1q0 44 -1 51q7 3 24.5 3t26.5 -2q7 -17 0 -50zM557 405v-107q0 -86 -37 -153.5t-104.5 -106t-155.5 -38.5l-162 -1l-34 315h-48q2 71 11 113h126q11 0 15 -4.5t5 -16.5l16 -172q23 36 36.5 91.5t13.5 101.5h110q9 -61 -19.5 -137.5 t-74.5 -111.5q-31 10 -64 38l10 -105h62q51 0 89.5 18.5t60.5 52.5t24 80q1 13 1 52l-46 1q3 74 12 112h137q9 0 12.5 -5t3.5 -17zM332 187q-1 43 -2 51q8 3 25 3t27 -2q7 -17 0 -50q-6 -3 -24 -3t-26 1z" />
<glyph unicode="&#xfb2e;" horiz-adv-x="477" d="M391 144l17 -17t18.5 -19t13.5 -15.5t8 -14.5q-6 -9 -16.5 -22.5t-19 -23.5t-22 -25t-16.5 -18q-15 18 -58 62l-156 161q-16 -60 -16 -105l59 -1q-1 -31 -3.5 -61.5t-7.5 -44.5h-138q-18 0 -18 22v39q0 50 9 94.5t20 61.5q28 13 73 18l-53 55l-5 5q-50 51 -49 66 q8 10 23.5 26t32 32t25.5 23q48 -55 55 -64l147 -153q15 55 14 89l-55 1q2 75 10 112l143 -1q17 0 17 -22l-1 -32q0 -42 -8.5 -82.5t-23.5 -61.5q-34 -14 -78 -21zM159 -58h157q2 -5 0 -26.5t-6 -27.5h-157q-1 8 0.5 29t5.5 25z" />
<glyph unicode="&#xfb2f;" horiz-adv-x="477" d="M391 144l17 -17t18.5 -19t13.5 -15.5t8 -14.5q-6 -9 -16.5 -22.5t-19 -23.5t-22 -25t-16.5 -18q-15 18 -58 62l-156 161q-16 -60 -16 -105l59 -1q-1 -31 -3.5 -61.5t-7.5 -44.5h-138q-18 0 -18 22v39q0 50 9 94.5t20 61.5q28 13 73 18l-53 55l-5 5q-50 51 -49 66 q8 10 23.5 26t32 32t25.5 23q48 -55 55 -64l147 -153q15 55 14 89l-55 1q2 75 10 112l143 -1q17 0 17 -22l-1 -32q0 -42 -8.5 -82.5t-23.5 -61.5q-34 -14 -78 -21zM159 -58h157q3 -5 1 -26.5t-6 -26.5h-52q3 -34 8 -67q-32 -8 -63 0q5 33 8 67h-58q-2 7 0 28t5 25z" />
<glyph unicode="&#xfb30;" horiz-adv-x="477" d="M391 144l17 -17t18.5 -19t13.5 -15.5t8 -14.5q-6 -9 -16.5 -22.5t-19 -23.5t-22 -25t-16.5 -18q-15 18 -58 62l-156 161q-16 -60 -16 -105l59 -1q-1 -31 -3.5 -61.5t-7.5 -44.5h-138q-18 0 -18 22v39q0 50 9 94.5t20 61.5q28 13 73 18l-53 55l-5 5q-50 51 -49 66 q8 10 23.5 26t32 32t25.5 23q48 -55 55 -64l147 -153q15 55 14 89l-55 1q2 75 10 112l143 -1q17 0 17 -22l-1 -32q0 -42 -8.5 -82.5t-23.5 -61.5q-34 -14 -78 -21zM152 162q8 3 25 3.5t27 -2.5q7 -16 0 -50q-6 -2 -24 -2.5t-26 1.5q-1 43 -2 50z" />
<glyph unicode="&#xfb31;" horiz-adv-x="450" d="M310 112h120q-2 -70 -11 -112h-393q2 70 11 112h227l1 120q0 43 -13.5 62.5t-48.5 19.5h-167q2 70 11 113h205q37 0 64 -13t42 -35t21.5 -48t6.5 -56v-116q-26 -24 -76 -47zM172 191q-6 -2 -24.5 -2.5t-26.5 1.5q0 43 -1 51q7 2 24.5 2.5t26.5 -1.5q8 -17 1 -51z" />
<glyph unicode="&#xfb32;" horiz-adv-x="369" d="M293 278q5 -32 12.5 -62t15 -54.5t15.5 -40.5t15 -20q-14 -28 -37 -64t-35 -48q-16 -3 -41.5 36.5t-36.5 83.5l-8 38q-4 -33 -16.5 -66.5t-22.5 -47.5q-40 -34 -115 -43q-18 55 -23 114q47 6 94 27t75 51q-11 56 -16 95q-1 11 -3 17.5t-8 13t-17 6.5h-83q5 75 15 113h82 h75q23 0 34 -10.5t15 -44.5q6 -51 14 -94zM121 198q-6 -2 -24 -2.5t-26 0.5q0 44 -1 51q7 3 24 3t27 -2q7 -16 0 -50z" />
<glyph unicode="&#xfb33;" horiz-adv-x="426" d="M390 314h-67v-304q-32 -11 -124 -19q0 38 1 139t0 130q33 27 81 54l-265 1q2 69 11 112h374q-2 -70 -11 -113zM69 223q7 3 24.5 3.5t27.5 -2.5q7 -16 0 -50q-6 -2 -24 -2.5t-26 0.5q-1 44 -2 51z" />
<glyph unicode="&#xfb34;" horiz-adv-x="496" d="M323 -9q-1 0 -1 46.5v108.5v86q-1 44 -13.5 63t-48.5 19h-215q3 70 12 113h254q37 0 64 -13t42 -35t22 -48t7 -56v-265q-33 -11 -123 -19zM47 -9l-1 209q19 7 59 13.5t65 6.5q0 -20 -0.5 -90.5t-0.5 -119.5q-33 -11 -122 -19zM267 205q8 -16 1 -50q-6 -2 -24.5 -2.5 t-26.5 1.5q0 43 -1 51q7 2 24.5 2.5t26.5 -2.5z" />
<glyph unicode="&#xfb35;" horiz-adv-x="266" d="M211 10q-32 -11 -124 -19l1 324h-73q2 69 11 112h163q13 0 17.5 -6.5t4.5 -20.5q1 -208 0 -390zM50 225q7 -16 0 -50q-6 -2 -24 -2.5t-26 1.5q-1 43 -1 50q7 3 24 3.5t27 -2.5z" />
<glyph unicode="&#xfb36;" horiz-adv-x="304" d="M277 427q-3 -70 -12 -113h-75q0 -46 19.5 -146t35.5 -138q-15 -12 -52 -25.5t-62 -17.5q-15 21 -34 122.5t-18 150.5q23 28 72 55h-131q2 69 11 112h246zM-14 225q7 3 24.5 3.5t26.5 -2.5q7 -16 0 -50q-5 -2 -23.5 -2.5t-26.5 0.5q0 44 -1 51z" />
<glyph unicode="&#xfb38;" horiz-adv-x="522" d="M257 0h-166l-25 314h-50q3 70 11 113h130q8 0 12.5 -3.5t6 -9t2.5 -15.5l22 -288h50q45 0 72 24.5t27 70.5v110q-19 -6 -72 -27q-10 19 -19 51t-12 54q40 13 106 25t97 12q23 0 23 -22v-203q0 -21 -4.5 -42.5t-13 -41.5t-21.5 -38.5t-30.5 -33.5t-39 -26t-48.5 -17.5 t-58 -6.5zM285 243q8 -16 1 -50q-6 -2 -24.5 -2.5t-26.5 0.5q0 44 -1 51q7 3 24.5 3t26.5 -2z" />
<glyph unicode="&#xfb39;" horiz-adv-x="259" d="M191 181q8 23 16 73.5t8 95.5v40q0 37 -33 37h-153q-9 -43 -11 -113h71v-10q0 -69 -15 -146q25 -3 63 5t54 18zM43 242q7 -17 0 -51q-5 -2 -23.5 -2.5t-26.5 1.5q0 43 -1 51q7 2 24.5 2.5t26.5 -1.5z" />
<glyph unicode="&#xfb3a;" horiz-adv-x="429" d="M379 -211q-33 -11 -123 -19l-1 462q-1 44 -13.5 63t-47.5 19h-178q2 71 11 114l217 -1q37 0 64 -13t42 -35t22 -48t7 -56v-486zM154 205q7 -16 0 -50q-6 -2 -24 -2.5t-26 1.5q-1 43 -2 51q8 2 25 2.5t27 -2.5z" />
<glyph unicode="&#xfb3b;" horiz-adv-x="421" d="M185 0q48 0 88 20t64 51t37 66t13 69v30q0 78 -48.5 134.5t-130.5 56.5l-166 1q-9 -43 -12 -114h148q84 0 84 -90v-25q0 -89 -97 -88l-127 2q-9 -43 -11 -113h158zM164 242q7 -16 0 -50q-6 -2 -24 -2.5t-26 0.5q-1 44 -2 51q7 3 24.5 3t27.5 -2z" />
<glyph unicode="&#xfb3c;" horiz-adv-x="435" d="M273 6q-53 -9 -127 -12q-5 58 23 130q28 74 90 190h-228q-10 41 -14 121q-4 69 1 127q29 8 69.5 13t64.5 4q-11 -89 -14 -152h240q12 0 19.5 -9t7.5 -22q0 -16 -7.5 -41.5t-15.5 -45t-25.5 -59.5t-25.5 -59q-32 -77 -45 -120t-13 -65zM118 230q7 -17 0 -51 q-6 -2 -24 -2.5t-26 1.5q-1 43 -2 51q8 2 25 2.5t27 -1.5z" />
<glyph unicode="&#xfb3e;" horiz-adv-x="525" d="M469 0h-220q3 70 12 112l98 -1v136q0 22 -9 40t-25.5 28t-36.5 10q-26 0 -48.5 -12.5t-30.5 -26.5q-2 -15 -6.5 -60.5t-11 -103.5t-13.5 -116q-30 -6 -127 -11q8 61 24 158.5t25 137.5q-12 7 -26.5 19t-26 26.5t-15.5 26.5q10 18 40 46t49 40q18 -30 74 -85q62 71 130 71 q70 0 112.5 -48t42.5 -122v-154q-4 -65 -11 -111zM304 237q7 -16 0 -50q-6 -2 -24 -2.5t-26 0.5q-1 44 -1 51q7 3 24 3.5t27 -2.5z" />
<glyph unicode="&#xfb40;" horiz-adv-x="322" d="M263 0h-248q2 65 13 112h129q-6 56 -8 171q0 13 -3.5 20t-8 9t-12.5 2h-80q2 71 11 113h164q44 0 46 -67q2 -72 6.5 -157t4.5 -90q-5 -56 -14 -113zM101 246q7 -17 0 -50q-5 -3 -23.5 -3t-26.5 1q0 43 -1 51q7 2 24.5 2.5t26.5 -1.5z" />
<glyph unicode="&#xfb41;" horiz-adv-x="505" d="M470 236v-18q0 -101 -61.5 -164.5t-157.5 -63.5q-91 0 -147.5 55.5t-56.5 150.5q0 39 14 64q22 21 69 54h-95q3 70 12 113h243q83 0 131.5 -56t48.5 -135zM347 212v12q0 43 -20 66.5t-67 23.5h-85q-11 -28 -11 -80q0 -69 23 -99.5t72 -30.5q88 0 88 108zM228 239 q7 3 24.5 3.5t26.5 -2.5q8 -16 1 -50q-6 -2 -24.5 -2.5t-26.5 0.5q0 44 -1 51z" />
<glyph unicode="&#xfb43;" horiz-adv-x="469" d="M429 -166q-32 -11 -123 -19l-1 417q-1 44 -14 63t-48 19h-80q0 -3 6 -54.5t7 -72.5q-30 -15 -127 -30q3 150 14 270h231q36 0 63 -13t41.5 -35t21.5 -48t7 -56zM259 265q8 -16 0 -50q-5 -2 -23.5 -2.5t-26.5 1.5q0 43 -1 51q7 2 24.5 2.5t26.5 -2.5z" />
<glyph unicode="&#xfb44;" horiz-adv-x="469" d="M232 0h-187q5 75 16 112l140 -1q108 0 108 88v25q0 43 -19 66.5t-64 23.5h-68q0 -3 6 -46t7 -61q-30 -15 -127 -30q3 139 14 250h199q81 1 128.5 -55.5t47.5 -135.5v-30q0 -34 -12.5 -69t-36.5 -66t-64 -51t-88 -20zM258 249q8 -16 1 -50q-6 -3 -24.5 -3t-26.5 1 q0 44 -1 51q7 3 24.5 3t26.5 -2z" />
<glyph unicode="&#xfb46;" horiz-adv-x="455" d="M417 365q0 -21 -3.5 -47.5t-11 -53t-17.5 -38.5q-47 -20 -94 -29q68 -70 109 -99q-12 -81 -16 -98h-343q3 70 12 112l228 -1q-38 9 -102 56.5t-111 113.5q-14 20 -28.5 51.5t-16.5 48.5q6 7 24.5 18.5t46.5 27t31 17.5q7 -21 27 -61t33 -60q33 -50 92 -112q12 24 19 55 t7 48l-61 1q3 69 12 112l145 -1q19 0 19 -27zM96 155q-6 -2 -24 -2.5t-26 0.5q-1 44 -2 51q8 3 25 3.5t27 -2.5q7 -16 0 -50z" />
<glyph unicode="&#xfb47;" horiz-adv-x="489" d="M248 -3q-5 12 -0.5 66t21.5 106q27 86 50 145h-277q2 70 11 113h377q12 0 20 -10t8 -26q0 -11 -2.5 -26t-8.5 -34t-12 -37.5t-15.5 -47.5t-16.5 -53q-16 -52 -26 -109.5t-8 -79.5q-18 -2 -121 -7zM49 -158v382q16 6 59 13t66 8v-384q-33 -11 -125 -19zM251 241 q7 -17 0 -50q-6 -3 -24 -3t-26 1q-1 43 -2 51q8 3 25 3t27 -2z" />
<glyph unicode="&#xfb48;" horiz-adv-x="423" d="M248 -9v241q0 29 -5 46t-18.5 26.5t-38.5 9.5l-170 1q2 69 11 112h210q37 0 64 -13t41.5 -35t21.5 -48t7 -56v-265q-31 -11 -123 -19zM156 215q7 -16 0 -50q-6 -2 -24 -2.5t-27 1.5q0 43 -1 50q7 3 24.5 3.5t27.5 -2.5z" />
<glyph unicode="&#xfb49;" horiz-adv-x="598" d="M557 405v-107q0 -86 -37 -153.5t-104.5 -106t-155.5 -38.5l-162 -1l-34 315h-48q3 71 11 113h126q11 0 15 -4.5t5 -16.5l16 -172q23 36 36.5 91.5t13.5 101.5h110q9 -61 -19.5 -137.5t-74.5 -111.5q-31 10 -64 38l10 -105h62q77 0 124 40.5t50 110.5q1 13 1 52l-46 1 q3 74 12 112h137q9 0 12.5 -5t3.5 -17zM332 187q-1 43 -2 51q8 3 25 3t27 -2q7 -17 0 -50q-6 -3 -24 -3t-26 1z" />
<glyph unicode="&#xfb4a;" horiz-adv-x="539" d="M354 427q37 0 64 -13t41.5 -35t21.5 -48t7 -56v-265q-32 -11 -123 -19v241q0 43 -13 62.5t-49 19.5h-108q3 -37 26 -119.5t23 -86.5q-2 -12 -7.5 -32.5t-12.5 -42t-13 -33.5h-196q3 69 12 111q8 0 42.5 -0.5t54.5 -0.5q-27 88 -30 140q10 20 65 64h-106q2 71 11 113h290z M258 245q7 3 24.5 3.5t26.5 -2.5q8 -16 1 -50q-6 -2 -24.5 -2.5t-26.5 0.5q0 44 -1 51z" />
<glyph unicode="&#xfb4b;" horiz-adv-x="266" d="M3 500q8 -17 0 -50q-5 -3 -23.5 -3t-26.5 1q0 43 -1 51q7 2 24.5 2.5t26.5 -1.5zM211 10q-32 -11 -124 -19l1 324h-73q2 69 11 112h163q13 0 17.5 -6.5t4.5 -20.5q1 -208 0 -390z" />
<glyph horiz-adv-x="425" d="M212 -8q-98 0 -144 59t-46 165v83q-1 224 190 224t191 -224l-1 -80q0 -227 -190 -227zM212 101q36 0 51.5 24.5t15.5 90.5v86q0 62 -15 87t-52 25q-25 1 -39.5 -10t-21 -35.5t-5.5 -66.5v-89q0 -64 15 -88t51 -24z" />
<glyph horiz-adv-x="425" d="M292 110l92 -1q-2 -63 -13 -107l-327 -2q2 48 13 110h111l1 262l-103 -44q-3 9 -8.5 30.5t-10 45.5t-5.5 37q23 9 119.5 40t111.5 34q8 1 13.5 -4.5t5.5 -14.5v-386z" />
<glyph horiz-adv-x="425" d="M365 0h-320l2 83q3 75 135 184q60 50 60 97q0 23 -16.5 36.5t-47.5 13.5q-36 0 -84 -35q-8 9 -22.5 43t-18.5 50q8 6 17 12t20 11.5t23.5 10.5t26 8.5t29 5.5t30.5 2q71 0 118 -40.5t47 -104.5q0 -85 -82 -159q-19 -18 -50.5 -44t-47.5 -41t-18 -22l211 2 q-3 -71 -12 -113z" />
<glyph horiz-adv-x="425" d="M314 271q30 -14 50 -42t20 -69q0 -69 -51.5 -119t-146.5 -50q-31 0 -62.5 5.5t-54.5 14.5t-36 20q3 21 12 52t18 49q57 -31 127 -31q76 0 76 65q0 20 -14 33t-37 13l-99 -1q0 13 3 45.5t7 45.5l61 1q60 0 60 64q0 13 -6 22.5t-16 15t-22 8.5t-25 3q-23 0 -50 -9.5 t-36 -18.5q-8 7 -22 43t-15 51q20 15 59.5 27.5t82.5 12.5q80 0 124 -37t44 -99q0 -18 -5 -37.5t-17 -40.5t-29 -37z" />
<glyph horiz-adv-x="425" d="M237 -9v93l-206 3q-18 57 -14 91q46 71 116 187.5t93 163.5q18 -3 52.5 -22t46.5 -34q-6 -23 -46 -86t-78.5 -117t-60.5 -82h106l3 95q32 15 102 15l5 -110l61 2q-11 -78 -16 -98l-42 -1l2 -81q-31 -11 -124 -19z" />
<glyph horiz-adv-x="425" d="M196 -9q-52 0 -97 14t-61 29q14 53 38 100q14 -13 45.5 -24t64.5 -11q25 0 44 10.5t29 27.5t10 36q0 32 -20.5 49.5t-57.5 17.5q-9 0 -18.5 -1.5t-17.5 -3t-18.5 -5t-17 -5.5t-18.5 -6.5t-17 -6.5l-18 11l1 292h294q0 -58 -14 -109l-175 9l-3 -116q46 25 94 25 q57 0 93 -37t36 -104q0 -78 -56 -135t-140 -57z" />
<glyph horiz-adv-x="425" d="M264 328q63 0 101 -44.5t38 -111.5q0 -72 -50.5 -129.5t-132.5 -56.5q-85 0 -136 63.5t-51 161.5q0 54 16 103.5t48.5 93t88 74.5t127.5 43q11 -16 28 -102q-73 -5 -129 -49t-64 -112q13 26 47 46.5t69 19.5zM220 90q20 0 36 10t24 26.5t8 36.5q1 35 -17.5 55.5 t-46.5 20.5q-25 0 -46.5 -20t-21.5 -51q-1 -33 18.5 -55t45.5 -23z" />
<glyph horiz-adv-x="425" d="M399 515q4 -50 -15 -108q-111 -224 -194 -399q-81 -14 -130 -6q105 219 200 403h-220q0 26 4 60t11 50h344z" />
<glyph horiz-adv-x="424" d="M320 277q47 -19 67 -49t20 -79q0 -67 -52 -116t-136 -49q-87 0 -142.5 42.5t-55.5 114.5q0 39 23.5 72t60.5 52q-61 46 -61 114q0 64 50.5 105.5t124.5 41.5q72 0 118.5 -37t46.5 -96q0 -37 -17.5 -69t-46.5 -47zM157 377q0 -16 7 -30t22 -25t37 -17l29 -8q7 7 13.5 18 t11 26.5t4.5 30.5q0 28 -18.5 43.5t-45.5 15.5q-26 0 -43 -15t-17 -39zM221 79q34 0 54 19.5t20 46.5q0 25 -12 41t-46 26l-53 14q-8 2 -15 5q-34 -32 -34 -71q0 -35 25 -58t61 -23z" />
<glyph horiz-adv-x="425" d="M161 178q-41 1 -73 24t-49 60.5t-17 82.5q0 70 50.5 123.5t132.5 52.5q57 0 99.5 -27.5t65 -76t22.5 -111.5q0 -43 -9.5 -84t-31.5 -81t-54 -71.5t-79.5 -55t-105.5 -32.5q-11 16 -28 102q73 5 129 49t64 112q-13 -27 -47 -47t-69 -20zM205 414q-30 1 -49 -20t-19 -50 q0 -18 5 -32.5t13.5 -24t20.5 -14.5t25 -5q16 0 31.5 8.5t26 25t11.5 37.5q0 32 -19.5 53.5t-45.5 21.5z" />
<glyph horiz-adv-x="278" d="M183 225q-22 -12 -76 -29q-9 25 -20.5 136.5t-14.5 175.5q21 10 66 18t79 10zM195 117q5 -13 6 -46.5t-6 -68.5q-13 -6 -55 -6.5t-60 2.5q-1 99 -4 117q18 6 57.5 6.5t61.5 -4.5z" />
<glyph horiz-adv-x="375" d="M150 422q-37 0 -77 -43q-15 14 -34.5 42t-23.5 38q20 29 61 51t92 22q59 0 104 -35.5t45 -91.5q0 -49 -23.5 -83t-84.5 -72v-13v-19.5v-18.5q-11 0 -30.5 -0.5t-34 -1t-25.5 -1.5q-3 53 1 76t24 36q3 3 17.5 12t19.5 13.5t11 15.5t6 24q0 21 -14.5 35t-33.5 14zM222 117 q5 -13 6 -46.5t-6 -68.5q-13 -6 -55 -6.5t-60 2.5q-1 99 -4 117q18 6 57.5 6.5t61.5 -4.5z" />
<glyph horiz-adv-x="474" d="M407 174q2 -147 -116 -170l-1 -72q-45 -15 -94 -12l1 83q-17 2 -34 5t-28 6t-30.5 8.5t-28.5 7.5q-2 19 3.5 54.5t11.5 52.5q90 -32 161 -30q21 0 32 12.5t11 33.5q0 20 -13 32.5t-42 23.5l-56 20q-50 19 -77 50t-28 89q-2 129 116 148v75q45 16 94 13v-91q28 -4 101 -23 q0 -17 -4 -51.5t-9 -54.5q-12 3 -36 9.5t-38 10t-33 6.5t-35 2q-37 0 -36 -37q0 -20 11.5 -32t48.5 -24l44 -14q49 -16 76 -46t28 -85z" />
<glyph horiz-adv-x="691" d="M175 243q-41 0 -69.5 15.5t-43 42t-14.5 63.5v39q0 54 32 87.5t94.5 33.5t95 -33.5t32.5 -87.5v-37q0 -56 -33 -89.5t-94 -33.5zM108 -9l389 523q56 8 95 -1l-393 -523q-17 -5 -49.5 -5.5t-41.5 6.5zM175 325q31 0 32 46v27q0 44 -32 44t-32 -44v-29q2 -44 32 -44z M519 -25q-41 0 -69.5 15.5t-43 42.5t-14.5 63v39q-1 55 31.5 88t95 33t95 -33t32.5 -88v-37q0 -56 -33 -89.5t-94 -33.5zM519 57q31 0 32 47v26q0 44 -32 44t-32 -44v-29q2 -44 32 -44z" />
<glyph d="M-413 713q5 -13 6 -46t-6 -67q-13 -6 -53.5 -6.5t-58.5 2.5q-2 98 -4 115q17 6 55.5 6.5t60.5 -4.5zM-253 713q5 -13 6 -46t-6 -67q-13 -6 -53.5 -6.5t-58.5 2.5q-2 98 -4 115q17 6 55.5 6.5t60.5 -4.5z" />
<glyph d="M-302 697q6 -12 6.5 -43.5t-5.5 -64.5q-13 -5 -52 -6t-56 2q-1 93 -3 109q16 6 53 7t57 -4z" />
<glyph d="M-430 715q21 -14 73 -64t98 -109q-2 -8 -13 -6q-37 25 -112 67t-107 52q2 13 12 26.5t23.5 22.5t25.5 11z" />
<glyph d="M-345 597q21 -4 48.5 -22.5t38.5 -37.5q-18 -7 -53.5 -30.5t-67 -48.5t-47.5 -41q-11 -1 -16 7q15 41 36.5 81t37 62t23.5 30z" />
<glyph d="M-365 602q23 -23 73.5 -83.5t78.5 -99.5q-2 -8 -13 -7q-123 91 -146 106q-76 -30 -180 -99q-11 -2 -16 6q41 55 109 110.5t94 66.5z" />
<glyph d="M-440 500q0 -36 -22 -58t-58 -22q-14 0 -26 3.5t-22 10t-17.5 16t-11.5 22t-4 27.5q0 28 20.5 53t60.5 25q19 0 34.5 -6.5t25.5 -17t15 -24t5 -29.5zM-493 499q0 13 -6.5 22t-20.5 9t-20.5 -9.5t-6.5 -21.5q0 -6 2 -12t5 -10.5t8.5 -7t11.5 -2.5q11 0 19 9t8 23z" />
<glyph d="M-407 481q-25 -14 -45 -47q-3 0 -9 3q-7 14 -9 32q-4 34 14 58.5t55 24.5q18 0 68 -29.5t52 -31.5q27 18 40 48q3 0 9 -4q16 -20 18 -45q3 -27 -22 -48t-51 -21q-12 0 -32 10t-47 26.5t-41 23.5z" />
<glyph d="M-183 508q8 5 26 7.5t41.5 -1t38.5 -16.5l-469 -521q-11 -12 -47 -13.5t-58 13.5z" />
</font>
</defs>
</svg>
